Skip to main content

Strangefolk Live at 9:30 Club on 1999-04-17




Set 1:
Disc 1

1. A Blues Tune
2. Mud Spring Draw
3. So Well
4. Sinner
5. Take it Easy on Me
6. Speculator
7. All the Same
8. Westerly

Set 2:
Disc 2

1. Pawn
2. Cabin John
3. Reuben's Place
4. Stout-Hearted
5. Neighbor
6. Who Are You
7. Sidestep Blue

Disc 3

1. Poland
2. Rather Go Fishin'

Encore:

3. Sometimes
4. Casey Jones


Collection Strangefolk
Band/Artist Strangefolk
Venue 9:30 Club
Location Washington, DC

Source SBD > D-8
Lineage Tascam DA-20 MKII > Audiowerk 8 S/PDIF (48.0) > Soundforge XP 4.5 (44.1) > CD Wav > MKW > Shn > dBpoweramp > Flac
Taped by Patrick Price
Transferred by Patrick Price

Notes

Shntool Output:

length expanded size cdr WAVE problems filename
4:41.42 49667228 --- -- ---xx sf1999-04-17d1t01.flac
5:18.71 56262236 --- -- ---xx sf1999-04-17d1t02.flac
17:44.14 187722572 --- -- ---xx sf1999-04-17d1t03.flac
5:59.66 63482876 --- -- ---xx sf1999-04-17d1t04.flac
9:45.69 103356332 --- -- ---xx sf1999-04-17d1t05.flac
6:16.26 66387596 --- -- ---xx sf1999-04-17d1t06.flac
8:06.39 85822172 --- -- ---xx sf1999-04-17d1t07.flac
6:15.70 66314684 --- -- ---xx sf1999-04-17d1t08.flac
8:20.09 88221212 --- -- ---xx sf1999-04-17d2t01.flac
9:24.44 99593132 --- -- ---xx sf1999-04-17d2t02.flac
18:57.62 200712668 --- -- ---xx sf1999-04-17d2t03.flac
6:26.02 68095148 --- -- ---xx sf1999-04-17d2t04.flac
16:32.64 175139372 --- -- ---xx sf1999-04-17d2t05.flac
4:21.74 46214492 --- -- ---xx sf1999-04-17d2t06.flac
3:00.05 31763804 --- -- ---xx sf1999-04-17d2t07.flac
7:40.18 81186380 --- -- ---xx sf1999-04-17d3t01.flac
8:44.44 92537132 --- -- ---xx sf1999-04-17d3t02.flac
7:15.50 76851644 --- -- ---xx sf1999-04-17d3t03.flac
5:51.26 61977596 --- -- ---xx sf1999-04-17d3t04.flac
160:44.45 1622.49 MB (totals for 19 files, 0.5491 overall compression ratio)

Reviews

There are no reviews yet. Be the first one to write a review.
In Collection
Strangefolk
In Collection
Live Music Archive
Uploaded by
pprice
on 9/13/2011
Views
173
Favorites
1
PEOPLE ALSO FOUND
Strangefolk
by Strangefolk
58
0
0
Source: DSBD > DA-P1 (48.0)
Strangefolk
by Strangefolk
42
0
0
Source: AKG 451/CK1 > D5 Preamp > Sony D-8 (44.1)
Strangefolk
by Strangefolk
51
0
0
Source: DSBD
Strangefolk
by Strangefolk
58
0
0
Source: DSBD (44.1)
Strangefolk
by Strangefolk
30
0
0
Source: Neumann KM-140 > Sanosax > DA-P1 (44.1)
Strangefolk
by Strangefolk
44
0
0
Source: Sinnheiser 421 > D-8
Strangefolk
by Strangefolk
59
0
0
Source: SBD > DA-P1 (44.1)
Strangefolk
by Strangefolk
53
0
0
Source: SBD > DA-P1 > Sony D-6 (cass master) > DA-P1 (48.0)
Strangefolk
by Strangefolk
62
0
0
Source: DSBD > DA-P1 (48.0)
Strangefolk
66
0
0
Source: DMIX - SBD + AKG 451 > D-5 (Pre-amp only) > D-8 (44.1) (Mixed Post show on computer)